Torrent’s details

A Monster in Paris (2011) 1080p MKV x264 Dual AC3+DTS NL Subs

Download
No Client Needed
Direct Download
Download Torrent A Monster in Paris (2011) 1080p MKV x264 Dual AC3+DTS NL Subs Magnet Link
Info Hash 19631c8c5e033a8353344f06f1692e6adfdc755d
Anonymous Download Using USENET
Description A Monster in Paris (2011) 1080p MKV x264 Dual AC3+DTS NL Subs
.

.
Frankrijk
Animatie
89 minuten

geregisseerd door Bibo Bergeron
met de stemmen van Danny Huston, Catherine O'Hara en Vanessa Paradis

Parijs, 1910. Emile, een bescheiden filmoperateur, en Raoul, een kleurrijk uitvinder gaan op jacht naar een monster dat de bevolking van Parijs terroriseert. Ze bundelen de krachten met Lucille, de grootmoedige cabaretster, een excentrieke wetenschapper en diens heetgebakerde aap om het monster, dat uiteindelijk een heel erg grote maar ongevaarlijke vlo blijkt te zijn, te redden van de meedogenloos ambitieuze politiechef van de stad.

Vanaf 20 juni in de bioscoop
.
http://www.moviemeter.nl/film/66785
.
PLOT
.
A 3D-animated movie set in Paris in the year 1910 and centered on a monster who lives in a garden and his love for a beautiful, young singer. Paris.
.
http://www.imdb.com/title/tt0961097/
.
INFO
.
NL Vertaling QoQ TEAM
.
Format                           : Matroska
Format version                   : Version 2
File size                        : 8.28 GiB
Duration                         : 1h 31mn
Overall bit rate                 : 13.0 Mbps
Encoded date                     : UTC 2012-03-08 17:37:34
Writing application              : mkvmerge v3.3.0 ('Language' built on Mar 24 2010 14:59:24
Writing library                  : libebml v0.8.0 + libmatroska v0.9.0

Video
ID                               : 1
Format                           : AVC
Format/Info                      : Advanced Video Codec
Format profile                   : High@L4.1
Format settings, CABAC           : Yes
Format settings, ReFrames        : 4 frames
Codec ID                         : V_MPEG4/ISO/AVC
Duration                         : 1h 31mn
Bit rate                         : 8 849 Kbps
Width                            : 1 920 pixels
Height                           : 1 036 pixels
Display aspect ratio             : 1.853
Frame rate                       : 23.976 fps
Color space                      : YUV
Chroma subsampling               : 4:2:0
Bit depth                        : 8 bits
Scan type                        : Progressive
Bits/(Pixel*Frame)               : 0.186
Stream size                      : 5.38 GiB (65%)
Writing library                  : x264 core 120 r2164 da19765
Encoding settings                : cabac=1 / ref=4 / deblock=1:-3:-3 / analyse=0x3:0x113 / me=umh / subme=11 / psy=1 / psy_rd=1.05:0.10 / mixed_ref=1 / me_range=48 / chroma_me=1 / trellis=2 / 8x8dct=1 / cqm=0 / deadzone=21,11 / fast_pskip=0 / chroma_qp_offset=-2 / threads=12 / sliced_threads=0 / nr=0 / decimate=1 / interlaced=0 / bluray_compat=0 / constrained_intra=0 / bframes=6 / b_pyramid=2 / b_adapt=2 / b_bias=0 / direct=3 / weightb=1 / open_gop=0 / weightp=2 / keyint=250 / keyint_min=23 / scenecut=40 / intra_refresh=0 / rc_lookahead=60 / rc=2pass / mbtree=1 / bitrate=8849 / ratetol=1.0 / qcomp=0.70 / qpmin=0 / qpmax=69 / qpstep=4 / cplxblur=20.0 / qblur=0.5 / vbv_maxrate=45000 / vbv_bufsize=40000 / nal_hrd=none / ip_ratio=1.40 / aq=2:0.90
Language                         : English
Default                          : Yes
Forced                           : No

Audio #1
ID                               : 2
Format                           : DTS
Format/Info                      : Digital Theater Systems
Codec ID                         : A_DTS
Duration                         : 1h 31mn
Bit rate mode                    : Constant
Bit rate                         : 1 510 Kbps
Channel(s)                       : 6 channels
Channel positions                : Front: L C R, Side: L R, LFE
Sampling rate                    : 48.0 KHz
Bit depth                        : 24 bits
Compression mode                 : Lossy
Stream size                      : 984 MiB (12%)
Title                            : Engels DTS
Language                         : English
Default                          : Yes
Forced                           : Yes

Audio #2
ID                               : 3
Format                           : AC-3
Format/Info                      : Audio Coding 3
Mode extension                   : CM (complete main)
Codec ID                         : A_AC3
Duration                         : 1h 31mn
Bit rate mode                    : Constant
Bit rate                         : 640 Kbps
Channel(s)                       : 6 channels
Channel positions                : Front: L C R, Side: L R, LFE
Sampling rate                    : 48.0 KHz
Bit depth                        : 16 bits
Compression mode                 : Lossy
Stream size                      : 417 MiB (5%)
Title                            : Engels DD5.1
Language                         : English
Default                          : No
Forced                           : No

Audio #3
ID                               : 4
Format                           : DTS
Format/Info                      : Digital Theater Systems
Codec ID                         : A_DTS
Duration                         : 1h 31mn
Bit rate mode                    : Constant
Bit rate                         : 1 510 Kbps
Channel(s)                       : 6 channels
Channel positions                : Front: L C R, Side: L R, LFE
Sampling rate                    : 48.0 KHz
Bit depth                        : 24 bits
Compression mode                 : Lossy
Delay relative to video          : 5ms
Stream size                      : 984 MiB (12%)
Title                            : Frans DTS
Language                         : French
Default                          : No
Forced                           : No

Audio #4
ID                               : 5
Format                           : AC-3
Format/Info                      : Audio Coding 3
Mode extension                   : CM (complete main)
Codec ID                         : A_AC3
Duration                         : 1h 31mn
Bit rate mode                    : Constant
Bit rate                         : 640 Kbps
Channel(s)                       : 6 channels
Channel positions                : Front: L C R, Side: L R, LFE
Sampling rate                    : 48.0 KHz
Bit depth                        : 16 bits
Compression mode                 : Lossy
Delay relative to video          : 5ms
Stream size                      : 417 MiB (5%)
Title                            : Frans DD5.1
Language                         : French
Default                          : No
Forced                           : No

Text
ID                               : 6
Format                           : UTF-8
Codec ID                         : S_TEXT/UTF8
Codec ID/Info                    : UTF-8 Plain Text
Title                            : Nederlands QoQ-Team
Language                         : Dutch
Default                          : Yes
Forced                           : Yes
.
Enjoy
.
There is a time to come and there is a time to go. The time to go will come.
Putdrive
Download Using Cloud
Category BluRay 1080p
Size 8.28 GB
Show/Hide Files
9 files
AddDate 08/03/2012
Uploader NLUPPER002
peers seeds: 44, leechers: 21
Update statistics Update
Last Update 17/04/2014 15:33:08 (17/04/2014 15:33:08)
Thanked by Be the first to give thanks
No comments...